#TITLE:OWNER OF A LONELY HEART;
#SUBTITLE:;
#ARTIST:Bus Stop;
#TITLETRANSLIT:;
#SUBTITLETRANSLIT:;
#ARTISTTRANSLIT:;
#CREDIT:;
#BANNER:Owner Heart-banner.png;
#BACKGROUND:Owner Heart-bg.png;
#LYRICSPATH:;
#CDTITLE:;
#MUSIC:Owner Heart.mp3;
#MUSICLENGTH:87.196;
#OFFSET:-0.060;
#SAMPLESTART:71.185;
#SAMPLELENGTH:12.000;
#SELECTABLE:YES;
#BPMS:0.000=134.000;
#STOPS:;
#BGCHANGES:;
#FIRSTBEAT:8.000;

#LASTBEAT:192.000;

#SONGFILENAME:Songs/ERICth MIX 2nd Style/owner heart/lonelyheart.sm;

#HASMUSIC:1;

#HASBANNER:1;


//---------------dance-single - MANIAC----------------
#NOTES:
     dance-single:
     MANIAC:
     hard:
     7:
     0.395,0.413,0.126,0.069,0.023,224.000,11.000,6.000,0.000,0.000:

0000
0000
0000
0000
,
0000
0000
0000
0000
,
0000
0000
0000
0000
,
0000
0000
0000
0000
,
0000
0000
0000
0000
,
0010
0010
0010
0010
,
1000
0000
0000
1000
0000
0000
1000
0000
1000
0000
0000
1000
0000
0000
1000
0000
,
0010
0000
0000
0010
0000
0000
0010
0000
0010
0000
0000
0010
0000
0000
0010
0000
,
1000
0100
1000
0001
0010
0000
0001
1000
,
0000
0000
1001
0000
0001
1000
0001
0000
,
0100
0010
0100
0001
1000
0000
1000
0100
,
0000
0000
0000
0000
0010
1000
0001
0100
,
0010
0100
0010
1000
0001
0000
0010
0100
,
0000
0010
0110
0100
,
1000
0010
1000
0010
1000
0010
0000
0020
,
0000
0000
0000
0000
0000
0030
0000
0000
,
1000
0100
0010
0000
0010
0001
0100
0000
,
0100
0001
0100
0000
0100
0001
1000
0000
,
1000
0100
0010
0000
0010
0100
0010
0000
,
0010
0100
0001
0000
0001
0100
1000
0000
,
1000
0010
0001
0000
0001
0010
1000
0000
,
1000
0010
0100
0000
0100
1000
0100
0000
,
1000
0001
1000
0000
1000
0001
0100
0000
,
0100
0000
0000
0000
,
0001
1000
0010
1000
0100
0010
0001
0100
,
0000
0100
0000
0000
0000
0000
1001
0000
,
0000
0010
1000
0100
0001
0100
0010
1000
,
0001
0000
0001
1000
0001
0100
0010
0100
,
0010
0100
0100
0000
0000
0000
0000
0000
,
0000
1000
0100
0001
0100
0010
0100
0000
,
0000
0100
0010
0001
1000
0100
0010
0001
,
0000
0220
0000
0000
0000
0330
0000
0000
,
1001
0000
0101
0000
1000
0010
1100
0000
,
0000
0010
0100
0001
1000
0100
1000
0100
,
0000
0000
0010
0100
0001
1000
1000
0001
,
1000
0000
1000
0000
1000
0000
1000
0100
,
0010
0100
0010
0001
0010
0001
0010
0100
,
0000
0100
0001
0100
1000
0100
0001
0000
,
1000
0100
1000
0010
0001
0010
0001
0000
,
0202
0000
0000
0303
,
1000
0100
1000
0001
0010
0000
0001
1000
,
0000
0000
1001
0000
0001
1000
0001
0000
,
0100
0010
0100
0001
1000
0000
1000
0100
,
0000
0000
0000
0000
0010
1000
0001
0100
,
0010
0100
0010
1000
0001
0000
0010
0100
,
0000
0010
0110
0100
,
1000
0010
1000
0010
1000
0010
0000
0020
,
0000
0000
0000
0000
0000
0030
0000
0000
,
1010
0000
0000
0000;

//---------------dance-single - ANOTHER----------------
#NOTES:
     dance-single:
     ANOTHER:
     medium:
     5:
     0.283,0.330,0.149,0.080,0.000,153.000,13.000,7.000,0.000,0.000:

0000
0000
0000
0000
,
0000
0000
0000
0000
,
0002
0000
0000
0000
,
0000
0000
0000
0000
,
2003
0000
0000
0000
,
0010
0000
0010
0000
0010
0000
0010
3000
,
0010
0000
0000
0000
,
0100
0000
0000
0000
,
1000
0100
1000
0010
1000
0000
0001
0100
,
0000
0000
0010
0000
0010
0100
0010
0000
,
0010
0100
0001
0100
0001
0000
0001
0100
,
0000
0000
0100
0000
0010
0100
0001
0000
,
1000
0100
0010
0100
0010
0000
0001
0100
,
0000
0010
0100
1000
,
0100
0001
1000
0100
0001
0000
0000
0001
,
0000
0000
0000
0000
,
0101
0000
0000
0000
0100
0000
0010
1000
,
0100
0000
0001
0100
,
0110
0000
1000
0010
,
0000
0000
0001
0000
0100
0001
0010
0000
,
0001
0000
0001
0000
,
0001
0000
1000
0000
,
1000
0010
0100
0000
,
0200
0000
0000
0000
0000
0000
0010
0300
,
0100
0010
0001
1000
,
0100
0000
0010
0001
,
0100
0010
0110
0011
,
0110
0000
0001
0000
,
0100
1000
1000
0000
0000
0000
0001
0000
,
0100
0000
0001
0000
1000
0010
1000
0000
,
0100
0000
0001
0000
1000
0001
0010
0000
,
0001
0100
0000
0100
,
0001
0000
0100
0000
0001
0100
0001
0000
,
0000
0101
0000
0101
,
0000
1100
0000
1100
,
0000
0110
0110
0110
,
1001
0100
0010
0000
,
1000
0000
0001
0000
0100
0010
0001
0000
,
0000
0100
0100
0100
,
0001
0000
0000
0000
,
0020
0000
0000
0030
0100
0000
0100
0000
,
0010
0001
1000
0100
,
0020
0000
0000
0030
0001
0000
0001
0000
,
0100
0000
0010
0000
1000
0001
0100
0001
,
0001
0000
0010
0000
0020
0000
0000
0030
,
0001
0000
0100
1000
,
0010
1000
0100
0001
0100
0001
0000
0002
,
0000
0000
0000
0000
,
1003
0000
0000
0000;

//---------------dance-single - BASIC----------------
#NOTES:
     dance-single:
     BASIC:
     easy:
     3:
     0.192,0.220,0.115,0.069,0.000,101.000,10.000,6.000,0.000,0.000:

0000
0000
0000
0000
,
0000
0000
0000
0000
,
0200
0000
0000
0000
,
0000
0000
0000
0000
,
0000
0000
0000
0000
,
0001
0001
0001
0301
,
0101
0000
0000
0000
,
0101
0000
0000
0000
,
0010
0000
0100
0000
,
0001
0000
1000
0000
,
0010
0000
0001
0000
,
0010
0000
0100
0000
,
0002
0000
0010
0010
,
0013
0000
1000
0000
,
0100
0000
0010
0000
,
2020
0000
0000
3030
,
0010
0000
1000
0000
,
0001
0000
0100
0000
,
0001
0000
0010
0000
,
1000
0000
0100
0000
,
0110
0000
0001
0000
,
1000
0000
0010
0000
,
0100
0000
0100
0000
,
0100
0000
0100
0000
,
0001
1000
0001
0000
,
0001
1000
0001
0000
,
0001
1000
0001
1000
,
0001
0000
0000
0000
,
0010
0100
0000
0100
,
0010
0000
0010
0100
,
0010
0000
0110
0000
,
1001
0000
0000
0000
,
0200
0010
0010
0310
,
0001
0000
1000
0010
,
0000
0100
0001
0100
,
0010
1000
0000
0000
,
0010
0100
0001
1000
,
0000
0010
0100
0010
,
0000
0100
0001
0100
,
0002
0000
0000
1003
,
1001
0000
0010
0100
,
0001
0000
1000
0000
,
0010
0000
0100
0000
,
1000
0000
1010
0000
,
0011
0000
0100
0000
,
1000
0000
0100
0000
,
0100
0000
0100
0000
,
0010
0000
0010
0000
,
1100
0000
0000
0000;
